The text below is selected, press Ctrl+C to copy to your clipboard. (⌘+C on Mac) No line numbers will be copied.
Alexander (2004) TC 1080p BluRay...

8th November 2022 01:44:18 AM | Views: 111
  1. Format                                   : Matroska
  2. Format version                           : Version 4
  3. File size                                : 4.23 GiB
  4. Duration                                 : 2 h 55 min
  5. Overall bit rate                         : 3 450 kb/s
  6. Movie name                               : Alexander (2004) TC 1080p BluRay x265 10bit HEVC Dual Audio [Hindi VCD DD2.0 + English DTS 5.1] ESub 4.22GB [MoviezAddiction.life]
  7. Encoded date                             : UTC 2022-11-07 23:45:31
  8. Writing application                      : mkvmerge v71.1.0 ('Fortitude') 64-bit
  9. Writing library                          : libebml v1.4.4 + libmatroska v1.7.1
  10.  
  11. Video
  12. ID                                       : 1
  13. Format                                   : HEVC
  14. Format/Info                              : High Efficiency Video Coding
  15. Format profile                           : Main [email protected]@Main
  16. Codec ID                                 : V_MPEGH/ISO/HEVC
  17. Duration                                 : 2 h 55 min
  18. Bit rate                                 : 1 701 kb/s
  19. Width                                    : 1 920 pixels
  20. Height                                   : 820 pixels
  21. Display aspect ratio                     : 2.35:1
  22. Frame rate mode                          : Variable
  23. Frame rate                               : 23.976 (24000/1001) FPS
  24. Color space                              : YUV
  25. Chroma subsampling                       : 4:2:0
  26. Bit depth                                : 10 bits
  27. Bits/(Pixel*Frame)                       : 0.045
  28. Stream size                              : 2.08 GiB (49%)
  29. Default                                  : Yes
  30. Forced                                   : No
  31. Color range                              : Limited
  32. Color primaries                          : BT.709
  33. Transfer characteristics                 : BT.709
  34. Matrix coefficients                      : BT.709
  35.  
  36. Audio #1
  37. ID                                       : 2
  38. Format                                   : AC-3
  39. Format/Info                              : Audio Coding 3
  40. Commercial name                          : Dolby Digital
  41. Format settings                          : Dolby Surround
  42. Codec ID                                 : A_AC3
  43. Duration                                 : 2 h 55 min
  44. Bit rate mode                            : Constant
  45. Bit rate                                 : 192 kb/s
  46. Channel(s)                               : 2 channels
  47. Channel layout                           : L R
  48. Sampling rate                            : 48.0 kHz
  49. Frame rate                               : 31.250 FPS (1536 SPF)
  50. Compression mode                         : Lossy
  51. Stream size                              : 241 MiB (6%)
  52. Title                                    : Hindi
  53. Language                                 : Hindi
  54. Service kind                             : Complete Main
  55. Default                                  : Yes
  56. Forced                                   : No
  57.  
  58. Audio #2
  59. ID                                       : 3
  60. Format                                   : DTS
  61. Format/Info                              : Digital Theater Systems
  62. Codec ID                                 : A_DTS
  63. Duration                                 : 2 h 55 min
  64. Bit rate mode                            : Constant
  65. Bit rate                                 : 1 509 kb/s
  66. Channel(s)                               : 6 channels
  67. Channel layout                           : C L R Ls Rs LFE
  68. Sampling rate                            : 48.0 kHz
  69. Frame rate                               : 93.750 FPS (512 SPF)
  70. Bit depth                                : 24 bits
  71. Compression mode                         : Lossy
  72. Stream size                              : 1.85 GiB (44%)
  73. Title                                    : English
  74. Language                                 : English
  75. Default                                  : No
  76. Forced                                   : No
  77.  
  78. Text
  79. ID                                       : 4
  80. Format                                   : PGS
  81. Codec ID                                 : S_HDMV/PGS
  82. Codec ID/Info                            : Picture based subtitle format used on BDs/HD-DVDs
  83. Duration                                 : 2 h 44 min
  84. Bit rate                                 : 48.6 kb/s
  85. Frame rate                               : 0.345 FPS
  86. Count of elements                        : 3406
  87. Stream size                              : 57.2 MiB (1%)
  88. Title                                    : English [PGS]
  89. Language                                 : English
  90. Default                                  : Yes
  91. Forced                                   : No
  92.  
  93. Menu
  94. 00:00:00.000                             : en:Chapter 01
  95. 00:12:13.983                             : en:Chapter 02
  96. 00:22:10.329                             : en:Chapter 03
  97. 00:30:27.200                             : en:Chapter 04
  98. 00:44:54.233                             : en:Chapter 05
  99. 01:09:56.567                             : en:Chapter 06
  100. 01:23:46.146                             : en:Chapter 07
  101. 01:37:48.696                             : en:Chapter 08
  102. 01:58:41.239                             : en:Chapter 09
  103. 02:18:00.397                             : en:Chapter 10
  104. 02:32:12.999                             : en:Chapter 11
  105. 02:44:12.801                             : en:Chapter 12